百度云电影论坛

 找回密码
 立即注册

[BD-4K] 蜘蛛侠2/蜘蛛人2 Spider-Man.2.2004.2160p.WEB-DL.DTS-HD.MA.TrueHD.7.1.Atmos.DV.MKV ...

[复制链接]

admin 发表于 2021-11-2 20:52:32 | 显示全部楼层 |阅读模式
蜘蛛侠2/蜘蛛人2 Spider-Man.2.2004.2160p.WEB-DL.DTS-HD.MA.TrueHD.7.1.Atmos.DV.MKV.x265-                                                                                                                                                                              -->
帖子完整标题:蜘蛛侠2/蜘蛛人2 Spider-Man.2.2004.2160p.WEB-DL.DTS-HD.MA.TrueHD.7.1.Atmos.DV.MKV.x265-NOGRP 31.51GB





◎译  名 蜘蛛侠2/蜘蛛人2(台)
◎片  名 Spider-Man 2
◎年  代 2004
◎产  地 美国
◎类  别 动作 / 科幻 / 冒险
◎语  言 英语,俄语,汉语普通话
◎上映日期 2004-06-30(美国) / 2004-08-05(中国大陆)
◎豆瓣评分 7.7/10 from 233805 users
◎ 
◎片  长 127分钟
◎导  演 山姆·雷米 Sam Raimi
◎编  剧 斯坦·李 Stan Lee / 史蒂夫·迪特寇 Steve Ditko / 艾尔弗雷德·高福 Alfred Gough / 迈尔斯·米勒 Miles Millar / 迈克尔·夏邦 Michael Chabon / 阿尔文·萨金特 Alvin Sargent
◎主  演 托比·马奎尔 Tobey Maguire
     克斯汀·邓斯特 Kirsten Dunst
     詹姆斯·弗兰科 James Franco
     阿尔弗雷德·莫里纳 Alfred Molina
     罗斯玛丽·哈里斯 Rosemary Harris
     J·K·西蒙斯 J.K. Simmons
     唐纳·墨菲 Donna Murphy
     丹尼尔·吉里斯 Daniel Gillies
     迪伦·贝克 Dylan Baker
     比尔·努恩 Bill Nunn
     范妮莎·费丽托 Vanessa Ferlito
     阿西夫·曼德维 Aasif Mandvi
     威廉·达福 Willem Dafoe
     克里夫·罗伯逊 Cliff Robertson
     泰德·雷米 Ted Raimi
     布鲁斯·坎贝尔 Bruce Campbell
     斯坦·李 Stan Lee
     伊丽莎白·班克斯 Elizabeth Banks
     乔尔·麦克哈尔 Joel McHale
     山姆·雷米 Sam Raimi
     哈尔·斯帕克斯 Hal Sparks
     艾米丽·丹斯切尔 Emily Deschanel
     布兰娜·布朗 Brianna Brown
     佩顿·李斯特 Peyton R. List
     约翰·兰迪斯 John Landis
     金大贤 Daniel Dae Kim
     邦妮· 萨默维尔 Bonnie Somerville
     里德·戴蒙德 Reed Diamond
     乔伊·布赖恩特 Joy Bryant
     马吉纳·托娃 Mageina Tovah
     布兰特·布里斯科 Brent Briscoe
     菲尔·拉马 Phil LaMarr
     斯科特·斯皮格尔 Scott Spiegel
     皮特·麦克罗比 Peter McRobbie
     莫莉·曲克 Molly Cheek
     斯宾塞·李斯特 Spencer List
     克里斯汀·艾斯布鲁克 Christine Estabrook
     金锋 Feng Jin
     张欣迪 Cindy Cheung
     乔安娜·巴隆 Joanne Baron
     路易斯·隆巴迪 Louis Lombardi
     罗肖恩·费根 Roshon Fegan
     格雷格·埃德尔曼 Gregg Edelman
     克洛伊·戴克斯特拉 Chloe Dykstra
     埃利亚·巴斯金 Elya Baskin
     马克·约翰·杰弗瑞 Marc John Jefferies
     安妮·贝坦克特 Anne Betancourt
     克劳迪娅·卡茨 Claudia Katz
     加雷特·瓦伦 Garrett Warren
     Tim Storms Tim Storms
     苏西·帕克 Susie Park
     卢·沃尔普 Lou Volpe
     Lorelei Llee Lorelei Llee
     Jill Sayre Jill Sayre
     Vince Cupone Vince Cupone
     法布里奇奥·范特 Fabrizio Fante
     丹·希克斯 Dan Hicks
     比尔·卡尔弗特 Bill Calvert
     蒂莫西·杰尔姆 Timothy Jerome
     Kelly Connell Kelly Connell
     Scott Skversky Scott Skversky
     菲利普·格拉姆 Phillip Gramm
      Peter Cincotti
      Ken Wharton
      Christopher Porto
      John Thurner
     Jopaul Epp Jopaul Epp
     Weston Epp Weston Epp
     特洛伊·梅特卡夫 Troy Metcalf
     Mohammed Hassan Mohammed Hassan
     Damian Bailey Damian Bailey
     卡尔文·迪恩 Calvin Dean

◎标  签 科幻 | 美国 | 动作 | 漫画改编 | 蜘蛛侠 | 美国电影 | 蜘蛛侠2 | 超级英雄

◎简  介

  大战绿妖之后,蜘蛛侠帕克(托比?马奎尔 Tobey Maguire 饰)忍痛拒绝了他唯一的挚爱玛丽(克尔斯滕?邓斯特 Kirsten Dunst 饰),因为蜘蛛侠的身份会为自己和亲人带来巨大危险,帕克决定独立承担起蜘蛛侠的责任。
  
  帕克一直在忙于应付各种挑战:学习超能力的灵活运用;在超级英雄与平凡大学生的双重身份下隐藏自我、小心翼翼地生活等等。帕克对玛丽越来越难以自拔,但是作为蜘蛛侠又不能对玛丽展开心扉。
  
  好友哈利因为误会蜘蛛侠而一直处处与其为作对;唯一的亲人婶婶也对蜘蛛侠的真实身份产生了怀疑。同时,新的挑战又出现了:邪恶而强大的章鱼博士。帕克在种种压力下肩负起蜘蛛侠的使命。

◎获奖情况

  第77届奥斯卡金像奖 ?(2005)
  最佳视觉效果 约翰·戴克斯特拉?/?斯科特·斯多克迪克?/?约翰·弗雷泽?/?安东尼·拉默里纳拉
  最佳混音(提名) 杰弗里·J·哈布斯?/?格雷格·P·罗素?/?凯文·奥康奈尔?/?约瑟夫·盖辛格
  最佳音效剪辑(提名) 保罗·奥特森
  
  第58届英国电影学院奖 ?(2005)
  电影奖最佳特殊视觉效果(提名) 约翰·戴克斯特拉?/?安东尼·拉默里纳拉?/?约翰·弗雷泽?/?斯科特·斯多克迪克
  电影奖最佳音效(提名) 格雷格·P·罗素?/?保罗·奥特森?/?凯文·奥康奈尔?/?杰弗里·J·哈布斯
  
  第14届MTV电影奖 ?(2005)
  MTV电影奖年度电影(提名)
  MTV电影奖最佳动作场面(提名)
  MTV电影奖最佳反派(提名) 阿尔弗雷德·莫里纳
  
  第5届美国电影学会奖 ?(2004)
  年度佳片
Video
ID             : 1
Format           : HEVC
Format/Info          : High Efficiency Video Coding
Format profile         : Main @High
HDR format           : Dolby Vision, Version 1.0, dvhe.05.06, BL+RPU
Codec ID           : V_MPEGH/ISO/HEVC
Duration           : 2 h 7 min
Bit rate           : 24.8 Mb/s
Width            : 3 840 pixels
Original width         : 3 838 pixels
Height           : 1 608 pixels
Original height        : 1 606 pixels
Display aspect ratio       : 2.40:1
Original display aspect ratio    : 2.40:1
Frame rate mode        : Constant
Frame rate           : 23.976 (24000/1001/189150) FPS
Color space          : YUV
Chroma subsampling       : 4:2:0
Bit depth          : 10 bits
Bits/(Pixel*Frame)       : 0.167
Stream size          : 22.1 GiB (70%)
Default            : Yes
Forced           : No

Audio #1
ID             : 2
Format           : MLP FBA 16-ch
Format/Info          : Meridian Lossless Packing FBA with 16-channel presentation
Commercial name        : Dolby TrueHD with Dolby Atmos
Codec ID           : A_TRUEHD
Duration           : 2 h 7 min
Bit rate mode          : Variable
Bit rate           : 4 963 kb/s
Maximum bit rate         : 9 234 kb/s
Channel(s)           : 8 channels
Channel layout         : L R C LFE Ls Rs Lb Rb
Sampling rate          : 48.0 kHz
Frame rate           : 1 200.000 FPS (40 SPF)
Compression mode         : Lossless
Stream size          : 4.42 GiB (14%)
Title            : TrueHD 7.1 Atmos
Language           : English
Default            : Yes
Forced           : No
Number of dynamic objects      : 11
Bed channel count        : 1 channel
Bed channel configuration      : LFE

Audio #2
ID             : 3
Format           : DTS XLL
Format/Info          : Digital Theater Systems
Commercial name        : DTS-HD Master Audio
Codec ID           : A_DTS
Duration           : 2 h 7 min
Bit rate mode          : Variable
Bit rate           : 4 108 kb/s
Channel(s)           : 8 channels
Channel layout         : C L R LFE Lb Rb Lss Rss
Sampling rate          : 48.0 kHz
Frame rate           : 93.750 FPS (512 SPF)
Bit depth          : 24 bits
Compression mode         : Lossless
Delay relative to video      : 3 ms
Stream size          : 3.66 GiB (12%)
Title            : DTS-HD MA 7.1
Language           : English
Default            : No
Forced           : No

Audio #3
ID             : 4
Format           : AC-3
Format/Info          : Audio Coding 3
Commercial name        : Dolby Digital
Codec ID           : A_AC3
Duration           : 2 h 7 min
Bit rate mode          : Constant
Bit rate           : 640 kb/s
Channel(s)           : 6 channels
Channel layout         : L R C LFE Ls Rs
Sampling rate          : 48.0 kHz
Frame rate           : 31.250 FPS (1536 SPF)
Compression mode         : Lossy
Delay relative to video      : 24 ms
Stream size          : 583 MiB (2%)
Title            : DD 5.1
Language           : English
Service kind         : Complete Main
Default            : No
Forced           : No

Audio #4
ID             : 5
Format           : E-AC-3 JOC
Format/Info          : Enhanced AC-3 with Joint Object Coding
Commercial name        : Dolby Digital Plus with Dolby Atmos
Codec ID           : A_EAC3
Duration           : 2 h 7 min
Bit rate mode          : Constant
Bit rate           : 768 kb/s
Channel(s)           : 6 channels
Channel layout         : L R C LFE Ls Rs
Sampling rate          : 48.0 kHz
Frame rate           : 31.250 FPS (1536 SPF)
Compression mode         : Lossy
Stream size          : 700 MiB (2%)
Title            : DDP 5.1 Atmos
Language           : English
Service kind         : Complete Main
Default            : No
Forced           : No
Complexity index         : 16
Number of dynamic objects      : 15
Bed channel count        : 1 channel
Bed channel configuration      : LFE

Text #1
ID             : 6
Format           : UTF-8
Codec ID           : S_TEXT/UTF8
Codec ID/Info          : UTF-8 Plain Text
Duration           : 1 h 58 min
Bit rate           : 37 b/s
Count of elements        : 1084
Stream size          : 32.8 KiB (0%)
Title            : SRT
Language           : English
Default            : Yes
Forced           : No

Text #2
ID             : 7
Format           : PGS
Muxing mode          : zlib
Codec ID           : S_HDMV/PGS
Codec ID/Info          : Picture based subtitle format used on BDs/HD-DVDs
Duration           : 2 h 6 min
Bit rate           : 25.8 kb/s
Count of elements        : 2874
Stream size          : 23.4 MiB (0%)
Title            : English-PGS
Language           : English
Default            : No
Forced           : No

Text #3
ID             : 8
Format           : PGS
Muxing mode          : zlib
Codec ID           : S_HDMV/PGS
Codec ID/Info          : Picture based subtitle format used on BDs/HD-DVDs
Duration           : 2 h 4 min
Bit rate           : 21.3 kb/s
Count of elements        : 2212
Stream size          : 18.9 MiB (0%)
Title            : English-PGS
Language           : English
Default            : No
Forced           : No

Text #4
ID             : 9
Format           : PGS
Muxing mode          : zlib
Codec ID           : S_HDMV/PGS
Codec ID/Info          : Picture based subtitle format used on BDs/HD-DVDs
Duration           : 2 h 4 min
Bit rate           : 21.3 kb/s
Count of elements        : 2216
Stream size          : 18.9 MiB (0%)
Title            : English-PGS
Language           : English
Default            : No
Forced           : No

Text #5
ID             : 10
Format           : PGS
Muxing mode          : zlib
Codec ID           : S_HDMV/PGS
Codec ID/Info          : Picture based subtitle format used on BDs/HD-DVDs
Duration           : 2 h 4 min
Bit rate           : 17.9 kb/s
Count of elements        : 2047
Stream size          : 16.0 MiB (0%)
Title            : French-PGS
Language           : French
Default            : No
Forced           : No

Text #6
ID             : 11
Format           : PGS
Muxing mode          : zlib
Codec ID           : S_HDMV/PGS
Codec ID/Info          : Picture based subtitle format used on BDs/HD-DVDs
Duration           : 2 h 0 min
Bit rate           : 19.3 kb/s
Count of elements        : 2150
Stream size          : 16.7 MiB (0%)
Title            : Portuguese-PGS
Language           : Portuguese
Default            : No
Forced           : No

Text #7
ID             : 12
Format           : PGS
Muxing mode          : zlib
Codec ID           : S_HDMV/PGS
Codec ID/Info          : Picture based subtitle format used on BDs/HD-DVDs
Duration           : 2 h 4 min
Bit rate           : 19.8 kb/s
Count of elements        : 2226
Stream size          : 17.6 MiB (0%)
Title            : Spanish-PGS
Language           : Spanish
Default            : No
Forced           : No

Menu
00:00:00.000         : en:Chapter 1
00:08:52.823         : en:Chapter 2
00:18:29.942         : en:Chapter 3
00:24:23.712         : en:Chapter 4
00:31:03.653         : en:Chapter 5
00:39:07.887         : en:Chapter 6
00:44:39.009         : en:Chapter 7
00:53:04.723         : en:Chapter 8
00:59:36.447         : en:Chapter 9
01:08:14.423         : en:Chapter 10
01:13:48.424         : en:Chapter 11
01:21:24.212         : en:Chapter 12
01:28:11.869         : en:Chapter 13
01:37:51.240         : en:Chapter 14
01:45:28.780         : en:Chapter 15
01:55:32.926         : en:Chapter 16





                                                                  
                                                                                                                                                                                                                                                                                 
0633549a146f2ddafb4e3510c4ad52b2.torrent (40.06 KB)

回复

使用道具 举报

百度云电影论坛 ( 辽ICP备17019482号-3 )

本网站所有资源来自网络,如无意中侵犯了您的权益,请发邮件至 [email protected],立即清除相关链接

GMT+8, 2024-6-20 08:27 , Processed in 0.080835 second(s), 33 queries .

Powered by Discuz! X3.2

© 2001-2013 Comsenz Inc.

快速回复 返回顶部 返回列表