百度云电影论坛

 找回密码
 立即注册

[BD-4K] 蜘蛛侠:英雄远征/新蜘蛛侠2 Spider-Man.Far.from.Home.2019.IMAX.2160p.BCORE.WEB-DL. ...

[复制链接]

admin 发表于 2021-12-4 17:48:53 | 显示全部楼层 |阅读模式
蜘蛛侠:英雄远征/新蜘蛛侠2 Spider-Man.Far.from.Home.2019.IMAX.2160p.BCORE.WEB-DL.x265.10bit.                                                                                                                                                                              -->
帖子完整标题:蜘蛛侠:英雄远征/新蜘蛛侠2 Spider-Man.Far.from.Home.2019.IMAX.2160p.BCORE.WEB-DL.x265.10bit.HDR.DTS-HD.MA.TrueHD.7.1.Atmos-SWTYBLZ 72.58GB





◎译  名 蜘蛛侠:英雄远征/新蜘蛛侠2/蜘蛛人:离家日(台)/蜘蛛侠:决战千里(港)/蜘蛛侠:归来2/蜘蛛侠:英雄归来2/蜘蛛侠:远离故乡/蜘蛛侠2/蜘蛛侠2:离家出走(豆友译名)/蜘蛛侠2:英雄离乡/蜘蛛侠2:远离家乡
◎片  名 Spider-Man: Far from Home
◎年  代 2019
◎产  地 美国
◎类  别 动作 / 科幻 / 冒险
◎语  言 英语
◎上映日期 2019-06-28(中国大陆) / 2019-07-02(美国)
◎豆瓣评分 7.7/10 from 533209 users
◎ 
◎片  长 127分钟
◎导  演 乔·沃茨 Jon Watts
◎编  剧 克里斯·麦克纳 Chris McKenna / 埃里克·萨默斯 Erik Sommers / 史蒂夫·迪特寇 Steve Ditko / 斯坦·李 Stan Lee
◎主  演 汤姆·赫兰德 Tom Holland
     赞达亚 Zendaya
     杰克·吉伦哈尔 Jake Gyllenhaal
     寇碧·史莫德斯 Cobie Smulders
     塞缪尔·杰克逊 Samuel L. Jackson
     乔恩·费儒 Jon Favreau
     玛丽莎·托梅 Marisa Tomei
     雅各布·巴特朗 Jacob Batalon
     安格瑞·赖斯 Angourie Rice
     马丁·斯塔尔 Martin Starr
     瑞米·许 Remy Hii
     纽曼·阿卡 Numan Acar
     托尼·雷沃罗利 Tony Revolori
     J·B·斯穆夫 J.B. Smoove
     赫米基·马德拉 Hemky Madera
     戴维娜·西塔拉姆 Davina Sitaram
     约瑟夫·朗 Joseph Long
     露丝·霍洛克斯 Ruth Horrocks
     希滕·珀泰尔 Hiten Patel
     杰罗恩·凡·康宁斯伯格 Jeroen van Koningsbrugge
     列尼斯·德洛桑托斯 Leonys Delossantos
     查利·蕾娅·埃斯奎尔 Charlie Rhea Esquér
     费斯·洛根 Faith Logan
     J·K·西蒙斯 J.K. Simmons
     小罗伯特·唐尼 Robert Downey Jr.
     安东尼·莫利纳利 Anthony Molinari
     乔·惠特利 Jo Wheatley
     埃莱娜·卡多纳 Hélène Cardona
     蒋静菊 Jingju Jiang
     彼得·比灵斯雷 Peter Billingsley
     妮科尔·亨布拉 Nicholle Hembra
     克莱尔·邓恩 Clare Dunne
     本·门德尔森 Ben Mendelsohn
     迈克尔·曼多 Michael Mando
     托妮·伽恩 Toni Garrn
     小豪尔赫·兰登伯格 Jorge Lendeborg Jr.

◎标  签 漫威 | 超级英雄 | 美国 | 科幻 | 2019 | 动作 | 成长 | 漫画改编

◎简  介

  在与灭霸史诗般的战争结束后,地球似乎暂时回归和平。皮特(汤姆·赫兰德 Tom Holland 饰)回到了校园生活之中,他和好友相谈甚欢,并且有了心仪的女孩,然而内心最深处依然放不下对钢铁侠的追悼缅怀。去往欧洲游学的路上,皮特试图找机会和个性女孩米歇尔(赞达亚 Zendaya 饰)表白,谁知接连出现的元素怪兽打乱了他的表白计划。在这一过程中,与神盾局合作的神秘客(杰克·吉伦哈尔 Jake Gyllenhaal 饰)挺身而出,击退怪兽。自感不堪大任的皮特谢绝了尼克·弗瑞(塞缪尔·杰克逊 Samuel L. Jackson 饰),情愿将钢铁侠继承者的重任交到神秘客手中。
  
  令他意想不到的是,更可怕的危机接二连三袭来……

◎获奖情况

  第47届动画安妮奖 ?(2020)
  最佳真人电影动画角色(提名)
  
  第18届美国视觉效果协会奖 ?(2020)
  最佳真人电影模拟动画效果(提名)
  
  第25届美国评论家选择电影奖 ?(2020)
  最佳动作片(提名)
  
  第6届豆瓣电影年度榜单 ?(2019)
  评分最高的科幻/动作片(提名)
  
  第5届豆瓣电影年度榜单 ?(2018)
  最值得期待的外语电影(提名)
Video
ID             : 1
Format           : HEVC
Format/Info          : High Efficiency Video Coding
Format profile         : Main @High
HDR format           : SMPTE ST 2086, HDR10 compatible
Codec ID           : V_MPEGH/ISO/HEVC
Duration           : 2 h 9 min
Bit rate           : 71.7 Mb/s
Width            : 3 840 pixels
Height           : 2 160 pixels
Display aspect ratio       : 16:9
Frame rate mode        : Constant
Frame rate           : 23.976 (24000/1001/189150) FPS
Color space          : YUV
Chroma subsampling       : 4:2:0 (Type 2)
Bit depth          : 10 bits
Bits/(Pixel*Frame)       : 0.361
Stream size          : 64.8 GiB (89%)
Language           : English
Default            : Yes
Forced           : No
Color range          : Limited
Color primaries        : BT.2020
Transfer characteristics     : PQ
Matrix coefficients        : BT.2020 non-constant
Mastering display color primaries  : Display P3
Mastering display luminance    : min: 0.0050 cd/m2, max: 4000 cd/m2
Maximum Content Light Level    : 10000 cd/m2
Maximum Frame-Average Light Level  : 595 cd/m2

Audio #1
ID             : 2
Format           : MLP FBA 16-ch
Format/Info          : Meridian Lossless Packing FBA with 16-channel presentation
Commercial name        : Dolby TrueHD with Dolby Atmos
Codec ID           : A_TRUEHD
Duration           : 2 h 9 min
Bit rate mode          : Variable
Bit rate           : 3 077 kb/s
Maximum bit rate         : 5 397 kb/s
Channel(s)           : 8 channels
Channel layout         : L R C LFE Ls Rs Lb Rb
Sampling rate          : 48.0 kHz
Frame rate           : 1 200.000 FPS (40 SPF)
Compression mode         : Lossless
Stream size          : 2.78 GiB (4%)
Title            : TrueHD 7.1 Atmos
Language           : English
Default            : Yes
Forced           : No
Number of dynamic objects      : 11
Bed channel count        : 1 channel
Bed channel configuration      : LFE

Audio #2
ID             : 3
Format           : DTS XLL
Format/Info          : Digital Theater Systems
Commercial name        : DTS-HD Master Audio
Codec ID           : A_DTS
Duration           : 2 h 9 min
Bit rate mode          : Variable
Bit rate           : 4 345 kb/s
Channel(s)           : 8 channels
Channel layout         : C L R LFE Lb Rb Lss Rss
Sampling rate          : 48.0 kHz
Frame rate           : 93.750 FPS (512 SPF)
Bit depth          : 24 bits
Compression mode         : Lossless
Delay relative to video      : 3 ms
Stream size          : 3.93 GiB (5%)
Title            : DTS-HD MA 7.1
Language           : English
Default            : No
Forced           : No

Audio #3
ID             : 4
Format           : AC-3
Format/Info          : Audio Coding 3
Commercial name        : Dolby Digital
Codec ID           : A_AC3
Duration           : 2 h 9 min
Bit rate mode          : Constant
Bit rate           : 640 kb/s
Channel(s)           : 6 channels
Channel layout         : L R C LFE Ls Rs
Sampling rate          : 48.0 kHz
Frame rate           : 31.250 FPS (1536 SPF)
Compression mode         : Lossy
Delay relative to video      : 24 ms
Stream size          : 592 MiB (1%)
Title            : DD 5.1
Language           : English
Service kind         : Complete Main
Default            : No
Forced           : No

Text #1
ID             : 5
Format           : UTF-8
Codec ID           : S_TEXT/UTF8
Codec ID/Info          : UTF-8 Plain Text
Duration           : 2 h 7 min
Bit rate           : 65 b/s
Count of elements        : 1725
Stream size          : 61.1 KiB (0%)
Title            : English-SRT
Language           : English
Default            : No
Forced           : No

Text #2
ID             : 6
Format           : PGS
Muxing mode          : zlib
Codec ID           : S_HDMV/PGS
Codec ID/Info          : Picture based subtitle format used on BDs/HD-DVDs
Duration           : 2 h 7 min
Bit rate           : 38.9 kb/s
Count of elements        : 3466
Stream size          : 35.6 MiB (0%)
Title            : English-PGS
Language           : English
Default            : No
Forced           : No

Text #3
ID             : 7
Format           : PGS
Muxing mode          : zlib
Codec ID           : S_HDMV/PGS
Codec ID/Info          : Picture based subtitle format used on BDs/HD-DVDs
Duration           : 2 h 8 min
Bit rate           : 42.1 kb/s
Count of elements        : 3858
Stream size          : 38.6 MiB (0%)
Title            : English-SDH-PGS
Language           : English
Default            : No
Forced           : No

Text #4
ID             : 8
Format           : PGS
Muxing mode          : zlib
Codec ID           : S_HDMV/PGS
Codec ID/Info          : Picture based subtitle format used on BDs/HD-DVDs
Duration           : 2 h 8 min
Bit rate           : 20.2 kb/s
Count of elements        : 3446
Stream size          : 18.6 MiB (0%)
Title            : Arabic-PGS
Language           : Arabic
Default            : No
Forced           : No

Text #5
ID             : 9
Format           : PGS
Muxing mode          : zlib
Codec ID           : S_HDMV/PGS
Codec ID/Info          : Picture based subtitle format used on BDs/HD-DVDs
Duration           : 2 h 8 min
Bit rate           : 34.7 kb/s
Count of elements        : 3424
Stream size          : 31.9 MiB (0%)
Title            : Bulgarian-PGS
Language           : Bulgarian
Default            : No
Forced           : No

Text #6
ID             : 10
Format           : PGS
Muxing mode          : zlib
Codec ID           : S_HDMV/PGS
Codec ID/Info          : Picture based subtitle format used on BDs/HD-DVDs
Duration           : 2 h 8 min
Bit rate           : 31.5 kb/s
Count of elements        : 3460
Stream size          : 29.0 MiB (0%)
Title            : Chinese-PGS
Language           : Chinese
Default            : No
Forced           : No

Text #7
ID             : 11
Format           : PGS
Muxing mode          : zlib
Codec ID           : S_HDMV/PGS
Codec ID/Info          : Picture based subtitle format used on BDs/HD-DVDs
Duration           : 2 h 8 min
Bit rate           : 32.7 kb/s
Count of elements        : 3454
Stream size          : 30.1 MiB (0%)
Title            : Chinese-PGS
Language           : Chinese
Default            : No
Forced           : No

Text #8
ID             : 12
Format           : PGS
Muxing mode          : zlib
Codec ID           : S_HDMV/PGS
Codec ID/Info          : Picture based subtitle format used on BDs/HD-DVDs
Duration           : 2 h 8 min
Bit rate           : 28.0 kb/s
Count of elements        : 3496
Stream size          : 25.8 MiB (0%)
Title            : Chinese-PGS
Language           : Chinese
Default            : No
Forced           : No

Text #9
ID             : 13
Format           : PGS
Muxing mode          : zlib
Codec ID           : S_HDMV/PGS
Codec ID/Info          : Picture based subtitle format used on BDs/HD-DVDs
Duration           : 2 h 8 min
Bit rate           : 31.3 kb/s
Count of elements        : 3436
Stream size          : 28.8 MiB (0%)
Title            : Croatian-PGS
Language           : Croatian
Default            : No
Forced           : No

Text #10
ID             : 14
Format           : PGS
Muxing mode          : zlib
Codec ID           : S_HDMV/PGS
Codec ID/Info          : Picture based subtitle format used on BDs/HD-DVDs
Duration           : 2 h 8 min
Bit rate           : 34.1 kb/s
Count of elements        : 3356
Stream size          : 31.3 MiB (0%)
Title            : Czech-PGS
Language           : Czech
Default            : No
Forced           : No

Text #11
ID             : 15
Format           : PGS
Muxing mode          : zlib
Codec ID           : S_HDMV/PGS
Codec ID/Info          : Picture based subtitle format used on BDs/HD-DVDs
Duration           : 2 h 8 min
Bit rate           : 31.6 kb/s
Count of elements        : 3348
Stream size          : 29.1 MiB (0%)
Title            : French-PGS
Language           : French
Default            : No
Forced           : No

Text #12
ID             : 16
Format           : PGS
Muxing mode          : zlib
Codec ID           : S_HDMV/PGS
Codec ID/Info          : Picture based subtitle format used on BDs/HD-DVDs
Duration           : 2 h 8 min
Bit rate           : 37.6 kb/s
Count of elements        : 3434
Stream size          : 34.5 MiB (0%)
Title            : Greek-PGS
Language           : Greek
Default            : No
Forced           : No

Text #13
ID             : 17
Format           : PGS
Muxing mode          : zlib
Codec ID           : S_HDMV/PGS
Codec ID/Info          : Picture based subtitle format used on BDs/HD-DVDs
Duration           : 2 h 8 min
Bit rate           : 28.4 kb/s
Count of elements        : 3414
Stream size          : 26.1 MiB (0%)
Title            : Hebrew-PGS
Language           : Hebrew
Default            : No
Forced           : No

Text #14
ID             : 18
Format           : PGS
Muxing mode          : zlib
Codec ID           : S_HDMV/PGS
Codec ID/Info          : Picture based subtitle format used on BDs/HD-DVDs
Duration           : 2 h 8 min
Bit rate           : 32.9 kb/s
Count of elements        : 3082
Stream size          : 30.2 MiB (0%)
Title            : Hungarian-PGS
Language           : Hungarian
Default            : No
Forced           : No

Text #15
ID             : 19
Format           : PGS
Muxing mode          : zlib
Codec ID           : S_HDMV/PGS
Codec ID/Info          : Picture based subtitle format used on BDs/HD-DVDs
Duration           : 2 h 8 min
Bit rate           : 35.1 kb/s
Count of elements        : 3270
Stream size          : 32.3 MiB (0%)
Title            : Icelandic-PGS
Language           : Icelandic
Default            : No
Forced           : No

Text #16
ID             : 20
Format           : PGS
Muxing mode          : zlib
Codec ID           : S_HDMV/PGS
Codec ID/Info          : Picture based subtitle format used on BDs/HD-DVDs
Duration           : 2 h 8 min
Bit rate           : 37.8 kb/s
Count of elements        : 3326
Stream size          : 34.7 MiB (0%)
Title            : Indonesian-PGS
Language           : Indonesian
Default            : No
Forced           : No

Text #17
ID             : 21
Format           : PGS
Muxing mode          : zlib
Codec ID           : S_HDMV/PGS
Codec ID/Info          : Picture based subtitle format used on BDs/HD-DVDs
Duration           : 2 h 8 min
Bit rate           : 28.6 kb/s
Count of elements        : 3482
Stream size          : 26.3 MiB (0%)
Title            : Korean-PGS
Language           : Korean
Default            : No
Forced           : No

Text #18
ID             : 22
Format           : PGS
Muxing mode          : zlib
Codec ID           : S_HDMV/PGS
Codec ID/Info          : Picture based subtitle format used on BDs/HD-DVDs
Duration           : 2 h 8 min
Bit rate           : 32.1 kb/s
Count of elements        : 3326
Stream size          : 29.6 MiB (0%)
Title            : Polish-PGS
Language           : Polish
Default            : No
Forced           : No

Text #19
ID             : 23
Format           : PGS
Muxing mode          : zlib
Codec ID           : S_HDMV/PGS
Codec ID/Info          : Picture based subtitle format used on BDs/HD-DVDs
Duration           : 2 h 8 min
Bit rate           : 34.4 kb/s
Count of elements        : 3350
Stream size          : 31.6 MiB (0%)
Title            : Portuguese-PGS
Language           : Portuguese
Default            : No
Forced           : No

Text #20
ID             : 24
Format           : PGS
Muxing mode          : zlib
Codec ID           : S_HDMV/PGS
Codec ID/Info          : Picture based subtitle format used on BDs/HD-DVDs
Duration           : 2 h 8 min
Bit rate           : 37.0 kb/s
Count of elements        : 3350
Stream size          : 34.0 MiB (0%)
Title            : Portuguese-PGS
Language           : Portuguese
Default            : No
Forced           : No

Text #21
ID             : 25
Format           : PGS
Muxing mode          : zlib
Codec ID           : S_HDMV/PGS
Codec ID/Info          : Picture based subtitle format used on BDs/HD-DVDs
Duration           : 2 h 8 min
Bit rate           : 35.0 kb/s
Count of elements        : 3176
Stream size          : 32.2 MiB (0%)
Title            : Romanian-PGS
Language           : Romanian
Default            : No
Forced           : No

Text #22
ID             : 26
Format           : PGS
Muxing mode          : zlib
Codec ID           : S_HDMV/PGS
Codec ID/Info          : Picture based subtitle format used on BDs/HD-DVDs
Duration           : 2 h 8 min
Bit rate           : 35.0 kb/s
Count of elements        : 3454
Stream size          : 32.2 MiB (0%)
Title            : Serbian-PGS
Language           : Serbian
Default            : No
Forced           : No

Text #23
ID             : 27
Format           : PGS
Muxing mode          : zlib
Codec ID           : S_HDMV/PGS
Codec ID/Info          : Picture based subtitle format used on BDs/HD-DVDs
Duration           : 2 h 8 min
Bit rate           : 31.6 kb/s
Count of elements        : 3438
Stream size          : 29.1 MiB (0%)
Title            : Slovak-PGS
Language           : Slovak
Default            : No
Forced           : No

Text #24
ID             : 28
Format           : PGS
Muxing mode          : zlib
Codec ID           : S_HDMV/PGS
Codec ID/Info          : Picture based subtitle format used on BDs/HD-DVDs
Duration           : 2 h 8 min
Bit rate           : 29.6 kb/s
Count of elements        : 2920
Stream size          : 27.2 MiB (0%)
Title            : Slovenian-PGS
Language           : Slovenian
Default            : No
Forced           : No

Text #25
ID             : 29
Format           : PGS
Muxing mode          : zlib
Codec ID           : S_HDMV/PGS
Codec ID/Info          : Picture based subtitle format used on BDs/HD-DVDs
Duration           : 2 h 8 min
Bit rate           : 36.5 kb/s
Count of elements        : 3438
Stream size          : 33.6 MiB (0%)
Title            : Spanish-PGS
Language           : Spanish
Default            : No
Forced           : No

Text #26
ID             : 30
Format           : PGS
Muxing mode          : zlib
Codec ID           : S_HDMV/PGS
Codec ID/Info          : Picture based subtitle format used on BDs/HD-DVDs
Duration           : 2 h 8 min
Bit rate           : 33.0 kb/s
Count of elements        : 3504
Stream size          : 30.4 MiB (0%)
Title            : Thai-PGS
Language           : Thai
Default            : No
Forced           : No

Text #27
ID             : 31
Format           : PGS
Muxing mode          : zlib
Codec ID           : S_HDMV/PGS
Codec ID/Info          : Picture based subtitle format used on BDs/HD-DVDs
Duration           : 2 h 8 min
Bit rate           : 36.7 kb/s
Count of elements        : 3436
Stream size          : 33.8 MiB (0%)
Title            : Turkish-PGS
Language           : Turkish
Default            : No
Forced           : No

Menu
00:00:00.000         : en:Chapter 01
00:09:35.033         : en:Chapter 02
00:16:06.716         : en:Chapter 03
00:25:18.475         : en:Chapter 04
00:35:26.499         : en:Chapter 05
00:41:57.014         : en:Chapter 06
00:49:50.029         : en:Chapter 07
00:57:09.509         : en:Chapter 08
01:04:50.637         : en:Chapter 09
01:15:57.219         : en:Chapter 10
01:22:49.089         : en:Chapter 11
01:29:25.193         : en:Chapter 12
01:36:43.256         : en:Chapter 13
01:44:47.364         : en:Chapter 14
01:52:17.397         : en:Chapter 15
01:57:45.433         : en:Chapter 16





                                                                  
                                                                                                                                                                                                                                                                                 
c3b2e6b15d7c4daf8e2742cb40279cd4.torrent (91.44 KB)

回复

使用道具 举报

百度云电影论坛 ( 辽ICP备17019482号-3 )

本网站所有资源来自网络,如无意中侵犯了您的权益,请发邮件至 [email protected],立即清除相关链接

GMT+8, 2024-7-18 01:35 , Processed in 0.078212 second(s), 31 queries .

Powered by Discuz! X3.2

© 2001-2013 Comsenz Inc.

快速回复 返回顶部 返回列表