百度云电影论坛

 找回密码
 立即注册

姊妹们的聚会 Dalecarlians.2004.1080p.BluRay.x264-USURY 10.28GB

[复制链接]

admin 发表于 2021-11-21 22:53:00 | 显示全部楼层 |阅读模式
姊妹们的聚会 Dalecarlians.2004.1080p.BluRay.x264-USURY 10.28GB                                                                                                                                                                              -->
帖子完整标题:姊妹们的聚会 Dalecarlians.2004.1080p.BluRay.x264-USURY 10.28GB





◎译  名 姊妹们的聚会
◎片  名 Masj?vlar
◎年  代 2004
◎产  地 瑞典
◎类  别 剧情 / 喜剧
◎语  言 瑞典语
◎上映日期 2004-12-17
◎豆瓣评分 /10 from 0 users
◎ 
◎片  长 Sweden: 98 分钟
◎导  演 玛丽亚·布洛姆 Maria Blom
◎编  剧 玛丽亚·布洛姆 Maria Blom
◎主  演 索菲亚·海林 Sofia Helin
     Kajsa Ernst Kajsa Ernst
     Alf Nilsson Alf Nilsson
     安·彼得伦 Ann Petrén
     Inga ?lenius Inga ?lenius
     Lars Gunnar Bj?rklund Lars Gunnar Bj?rklund
     威利·安德亚森 Willie Andréason

◎标  签 瑞典 | 瑞典电影 | 女性 | 剧情 | 北欧 | 2004 | 电影 | 杂志推荐

◎简  介

  又译作《姐妹情深》。
  
  电影讲的是在Dalarna长大的三姐妹的故事。Dalarna是斯德哥尔摩北部的一个郡,那里的居民被称为Dalecarlians。Dalecarlians认为Dalarna是瑞典的中心。
  
  最小的妹妹Mia早年离家,过上了大城市的生活。现在她从斯德哥尔摩回到家乡参加父亲Calle的70岁寿典。重归故地,她发现自己和姐姐们有巨大的差别。这种紧张关系不断加剧,庆典成为这个家庭及其朋友们的转折点。恼怒和妒忌,在酒精的推波助澜下,逐渐浮出表面。没有人觉得自己活得舒服。
Video
ID             : 1
Format           : AVC
Format/Info          : Advanced Video Codec
Format profile         :
Format settings        : CABAC / 4 Ref Frames
Format settings, CABAC       : Yes
Format settings, Reference frames  : 4 frames
Codec ID           : V_MPEG4/ISO/AVC
Duration           : 1 h 34 min
Bit rate           : 14.2 Mb/s
Width            : 1 920 pixels
Height           : 1 080 pixels
Display aspect ratio       : 16:9
Frame rate mode        : Constant
Frame rate           : 25.000 FPS
Color space          : YUV
Chroma subsampling       : 4:2:0
Bit depth          : 8 bits
Scan type          : Progressive
Bits/(Pixel*Frame)       : 0.275
Stream size          : 9.36 GiB (91%)
Writing library        : x264 core 164 r3075 66a5bc1
Encoding settings        : cabac=1 / ref=4 / deblock=1:-3:-3 / analyse=0x3:0x133 / me=umh / subme=10 / psy=1 / psy_rd=1.00:0.15 / mixed_ref=1 / me_range=24 / chroma_me=1 / trellis=2 / 8x8dct=1 / cqm=0 / deadzone=21,11 / fast_pskip=1 / chroma_qp_offset=-3 / threads=18 / lookahead_threads=3 / sliced_threads=0 / nr=0 / decimate=1 / interlaced=0 / bluray_compat=0 / constrained_intra=0 / bframes=8 / b_pyramid=2 / b_adapt=2 / b_bias=0 / direct=3 / weightb=1 / open_gop=0 / weightp=2 / keyint=250 / keyint_min=25 / scenecut=40 / intra_refresh=0 / rc_lookahead=60 / rc=crf / mbtree=1 / crf=20.5 / qcomp=0.60 / qpmin=0 / qpmax=69 / qpstep=4 / ip_ratio=1.40 / aq=3:0.50
Language           : English
Default            : Yes
Forced           : No
Color range          : Limited
Matrix coefficients        : BT.709

Audio
ID             : 2
Format           : FLAC
Format/Info          : Free Lossless Audio Codec
Codec ID           : A_FLAC
Duration           : 1 h 34 min
Bit rate mode          : Variable
Bit rate           : 1 327 kb/s
Channel(s)           : 2 channels
Channel layout         : L R
Sampling rate          : 48.0 kHz
Frame rate           : 11.719 FPS (4096 SPF)
Bit depth          : 24 bits
Compression mode         : Lossless
Stream size          : 893 MiB (8%)
Writing library        : libFLAC 1.2.1 (UTC 2007-09-17)
Language           : Swedish
Default            : Yes
Forced           : No

Text #1
ID             : 3
Format           : UTF-8
Codec ID           : S_TEXT/UTF8
Codec ID/Info          : UTF-8 Plain Text
Duration           : 1 h 31 min
Bit rate           : 56 b/s
Count of elements        : 912
Stream size          : 38.4 KiB (0%)
Title            : English
Language           : English
Default            : Yes
Forced           : Yes

Text #2
ID             : 4
Format           : PGS
Muxing mode          : zlib
Codec ID           : S_HDMV/PGS
Codec ID/Info          : Picture based subtitle format used on BDs/HD-DVDs
Duration           : 1 h 27 min
Bit rate           : 17.9 kb/s
Count of elements        : 1796
Stream size          : 11.2 MiB (0%)
Title            : Danish
Language           : Danish
Default            : No
Forced           : No

Text #3
ID             : 5
Format           : PGS
Muxing mode          : zlib
Codec ID           : S_HDMV/PGS
Codec ID/Info          : Picture based subtitle format used on BDs/HD-DVDs
Duration           : 1 h 29 min
Bit rate           : 14.7 kb/s
Count of elements        : 1432
Stream size          : 9.38 MiB (0%)
Title            : Finnish
Language           : Finnish
Default            : No
Forced           : No

Text #4
ID             : 6
Format           : PGS
Muxing mode          : zlib
Codec ID           : S_HDMV/PGS
Codec ID/Info          : Picture based subtitle format used on BDs/HD-DVDs
Duration           : 1 h 28 min
Bit rate           : 18.2 kb/s
Count of elements        : 1800
Stream size          : 11.6 MiB (0%)
Title            : Norwegian
Language           : Norwegian
Default            : No
Forced           : No

Text #5
ID             : 7
Format           : PGS
Muxing mode          : zlib
Codec ID           : S_HDMV/PGS
Codec ID/Info          : Picture based subtitle format used on BDs/HD-DVDs
Duration           : 1 h 28 min
Bit rate           : 18.1 kb/s
Count of elements        : 1720
Stream size          : 11.5 MiB (0%)
Title            : Swedish
Language           : Swedish
Default            : No
Forced           : No

Menu
00:00:00.000         : en:00:00:00.000
00:12:35.880         : en:00:12:35.880
00:21:53.360         : en:00:21:53.360
00:33:47.520         : en:00:33:47.520
00:46:15.520         : en:00:46:15.520
00:58:09.760         : en:00:58:09.760
01:10:11.480         : en:01:10:11.480
01:22:02.360         : en:01:22:02.360






                                                                  
                                                                                                                                                                                                                                                                                 
1ae2af67a8e4012496aeb86129249b54.torrent (13.57 KB)

回复

使用道具 举报

百度云电影论坛 ( 辽ICP备17019482号-3 )

本网站所有资源来自网络,如无意中侵犯了您的权益,请发邮件至 [email protected],立即清除相关链接

GMT+8, 2024-7-18 01:58 , Processed in 0.097724 second(s), 33 queries .

Powered by Discuz! X3.2

© 2001-2013 Comsenz Inc.

快速回复 返回顶部 返回列表