百度云电影论坛

 找回密码
 立即注册

[BD-4K] 蜘蛛侠/蜘蛛人 Spider-Man.2002.2160p.WEB-DL.DTS-HD.MA.TrueHD.7.1.Atmos.DV.MKV.x26 ...

[复制链接]

admin 发表于 2021-11-2 23:53:58 | 显示全部楼层 |阅读模式
蜘蛛侠/蜘蛛人 Spider-Man.2002.2160p.WEB-DL.DTS-HD.MA.TrueHD.7.1.Atmos.DV.MKV.x265-NOGR                                                                                                                                                                              -->
帖子完整标题:蜘蛛侠/蜘蛛人 Spider-Man.2002.2160p.WEB-DL.DTS-HD.MA.TrueHD.7.1.Atmos.DV.MKV.x265-NOGRP 30.68GB





◎译  名 蜘蛛侠/蜘蛛人(台)
◎片  名 Spider-Man
◎年  代 2002
◎产  地 美国
◎类  别 动作 / 科幻 / 冒险
◎语  言 英语
◎上映日期 2002-05-03(美国) / 2002-08-07(中国大陆)
◎豆瓣评分 7.9/10 from 318904 users
◎ 
◎片  长 121 分钟
◎导  演 山姆·雷米 Sam Raimi
◎编  剧 大卫·凯普 David Koepp / 斯坦·李 Stan Lee / 史蒂夫·迪特寇 Steve Ditko
◎主  演 托比·马奎尔 Tobey Maguire
     威廉·达福 Willem Dafoe
     克斯汀·邓斯特 Kirsten Dunst
     詹姆斯·弗兰科 James Franco
     克里夫·罗伯逊 Cliff Robertson
     罗斯玛丽·哈里斯 Rosemary Harris
     J·K·西蒙斯 J.K. Simmons
     乔·曼根尼罗 Joe Manganiello
     格里·贝克尔 Gerry Becker
     比尔·努恩 Bill Nunn
     杰克·贝茨 Jack Betts
     斯坦利·安德森 Stanley Anderson
     罗恩·帕金斯 Ron Perkins
     迈克尔·帕帕约翰 Michael Papajohn
     布鲁斯·坎贝尔 Bruce Campbell
     斯坦·李 Stan Lee
     伊丽莎白·班克斯 Elizabeth Banks
     奥克塔维亚·斯宾瑟 Octavia Spencer
     露西·劳莱丝 Lucy Lawless
     莎拉·拉米尔兹 Sara Ramirez
     宾尼·尤奎德兹 Benny Urquidez
     斯科特·斯皮格尔 Scott Spiegel
     吉姆·诺顿 Jim Norton
     杰西·巴托克 Jayce Bartok
     金锋 Feng Jin
     阿什丽·艾德纳 Ashley Edner
     罗伯特·科尔曼 Robert Kerman
     彼得·阿佩尔 Peter Appel
     杰西·海曼 Jesse Heiman
     席尔瓦·克莱吉安 Sylva Kelegian
     泰德·雷米 Ted Raimi
     玛西·格雷 Macy Gray
     迈克·沃特福德 Myk Watford
     Tammi Sutton Tammi Sutton
     Lou Torres Lou Torres
     Jillian Clare Jillian Clare
     Jacob Chambers Jacob Chambers
     兰迪·霍尔 Randy Hall
     菲利普·吴 Philip Ng
     Kristen Marie Holly Kristen Marie Holly
     克劳迪娅·卡茨 Claudia Katz
     Derek C. Wallace Derek C. Wallace
     阿杰·梅赫塔 Ajay Mehta
     Lance Polland Lance Polland
     Sean Valla Sean Valla
     Jophery C. Brown Jophery C. Brown
     Alex Black Alex Black
     Andy Bray Andy Bray
     布拉德·格伦伯格 Brad Grunberg
     Jill Sayre Jill Sayre
     兰迪·萨瓦格 Randy Savage
     杰森·帕德格特 Jason Padgett
     Joy Michelle Moore Joy Michelle Moore
     David Holcomb David Holcomb
     Al Goto Al Goto
     Shane Habberstad Shane Habberstad
     比尔·卡尔弗特 Bill Calvert
     洛伦·简斯 Loren Janes
     Andray Johnson Andray Johnson
     拉里·约书亚 Larry Joshua
     Juan M. Guerra Juan M. Guerra
     Ari Averbach Ari Averbach
      Patrick Coleman Duncan
      Cody Cundiff
      Richard Stephens
      Marcus Gorman
     瑞克·艾弗里 Rick Avery
     Gary Otto Gary Otto
     Margaret Baker Margaret Baker
     John Wojnowski III John Wojnowski III
     Erica D. Porter Erica D. Porter
     Camille Bennett Camille Bennett
     Leroy Patterson Leroy Patterson
     Peter Genovese Peter Genovese
     萨默·雷石东 Sumner Redstone
     Justin Neill Justin Neill
     R.C. Everbeck R.C. Everbeck

◎标  签 科幻 | 蜘蛛侠 | 美国 | 动作 | 漫画改编 | 美国电影 | 超级英雄 | 2002

◎简  介

  彼得 帕克(托比?马奎尔 Tobey Maguire 饰)只是美国一个平凡的高中生,当一次他被蜘蛛博物馆偷跑出来的变种蜘蛛咬了一口之后,彼得的生活彻底改变了。他变得和蜘蛛一样,拥有各种蜘蛛特有的超能力:从手指喷出粘力极强的蜘蛛丝、飞檐走壁等等。彼得兴奋异常,开始利用自己的超能力去赚钱。但当他最爱的叔叔被自己放走的罪犯杀死后,彼得发誓要用自己的超能力去打击犯罪。
  
  彼得好友哈利的父亲诺曼(威廉?达福 Willem Dafoe 饰)是一家生物科技公司的老板,因自己公司生产的飞行器没得到军方首脑赏识而苦恼不堪。一次意外诺曼吸入神经毒气而具有了超能力,引发了自身邪恶的本性,骑着自己研发的飞行器去到处破坏、杀人。彼得化身的蜘蛛侠开始出击了!

◎获奖情况

  第75届奥斯卡金像奖 ?(2003)
  最佳视觉效果(提名) 约翰·戴克斯特拉?/?安东尼·拉默里纳拉?/?约翰·弗雷泽?/?斯科特·斯多克迪克
  最佳音响(提名) 格雷格·P·罗素?/?凯文·奥康奈尔?/?爱德·诺维克
  
  第56届英国电影学院奖 ?(2003)
  电影奖最佳特殊视觉效果(提名) 约翰·戴克斯特拉?/?安东尼·拉默里纳拉?/?约翰·弗雷泽?/?斯科特·斯多克迪克
Video
ID             : 1
Format           : HEVC
Format/Info          : High Efficiency Video Coding
Format profile         : Main @High
HDR format           : Dolby Vision, Version 1.0, dvhe.05.06, BL+RPU
Codec ID           : V_MPEGH/ISO/HEVC
Duration           : 2 h 1 min
Bit rate           : 24.5 Mb/s
Width            : 3 840 pixels
Height           : 2 080 pixels
Original height        : 2 076 pixels
Display aspect ratio       : 1.85:1
Original display aspect ratio    : 1.85:1
Frame rate mode        : Constant
Frame rate           : 23.976 (24000/1001/189150) FPS
Color space          : YUV
Chroma subsampling       : 4:2:0
Bit depth          : 10 bits
Bits/(Pixel*Frame)       : 0.128
Stream size          : 20.8 GiB (68%)
Default            : Yes
Forced           : No

Audio #1
ID             : 2
Format           : MLP FBA 16-ch
Format/Info          : Meridian Lossless Packing FBA with 16-channel presentation
Commercial name        : Dolby TrueHD with Dolby Atmos
Codec ID           : A_TRUEHD
Duration           : 2 h 1 min
Bit rate mode          : Variable
Bit rate           : 5 548 kb/s
Maximum bit rate         : 8 487 kb/s
Channel(s)           : 8 channels
Channel layout         : L R C LFE Ls Rs Lb Rb
Sampling rate          : 48.0 kHz
Frame rate           : 1 200.000 FPS (40 SPF)
Compression mode         : Lossless
Stream size          : 4.70 GiB (15%)
Title            : TrueHD 7.1. Atmos
Language           : English
Default            : Yes
Forced           : No
Number of dynamic objects      : 11
Bed channel count        : 1 channel
Bed channel configuration      : LFE

Audio #2
ID             : 3
Format           : DTS XLL
Format/Info          : Digital Theater Systems
Commercial name        : DTS-HD Master Audio
Codec ID           : A_DTS
Duration           : 2 h 1 min
Bit rate mode          : Variable
Bit rate           : 4 602 kb/s
Channel(s)           : 8 channels
Channel layout         : C L R LFE Lb Rb Lss Rss
Sampling rate          : 48.0 kHz
Frame rate           : 93.750 FPS (512 SPF)
Bit depth          : 24 bits
Compression mode         : Lossless
Delay relative to video      : 3 ms
Stream size          : 3.90 GiB (13%)
Title            : DTS-HD MA 7.1
Language           : English
Default            : No
Forced           : No

Audio #3
ID             : 4
Format           : AC-3
Format/Info          : Audio Coding 3
Commercial name        : Dolby Digital
Codec ID           : A_AC3
Duration           : 2 h 1 min
Bit rate mode          : Constant
Bit rate           : 640 kb/s
Channel(s)           : 6 channels
Channel layout         : L R C LFE Ls Rs
Sampling rate          : 48.0 kHz
Frame rate           : 31.250 FPS (1536 SPF)
Compression mode         : Lossy
Delay relative to video      : 24 ms
Stream size          : 555 MiB (2%)
Title            : DD 5.1
Language           : English
Service kind         : Complete Main
Default            : No
Forced           : No

Audio #4
ID             : 5
Format           : E-AC-3 JOC
Format/Info          : Enhanced AC-3 with Joint Object Coding
Commercial name        : Dolby Digital Plus with Dolby Atmos
Codec ID           : A_EAC3
Duration           : 2 h 1 min
Bit rate mode          : Constant
Bit rate           : 768 kb/s
Channel(s)           : 6 channels
Channel layout         : L R C LFE Ls Rs
Sampling rate          : 48.0 kHz
Frame rate           : 31.250 FPS (1536 SPF)
Compression mode         : Lossy
Stream size          : 666 MiB (2%)
Title            : DDP 5.1 Atmos
Language           : English
Service kind         : Complete Main
Default            : No
Forced           : No
Complexity index         : 16
Number of dynamic objects      : 15
Bed channel count        : 1 channel
Bed channel configuration      : LFE

Text #1
ID             : 6
Format           : UTF-8
Codec ID           : S_TEXT/UTF8
Codec ID/Info          : UTF-8 Plain Text
Duration           : 1 h 52 min
Bit rate           : 47 b/s
Count of elements        : 1196
Stream size          : 39.4 KiB (0%)
Title            : SRT
Language           : English
Default            : Yes
Forced           : No

Text #2
ID             : 7
Format           : PGS
Muxing mode          : zlib
Codec ID           : S_HDMV/PGS
Codec ID/Info          : Picture based subtitle format used on BDs/HD-DVDs
Duration           : 2 h 0 min
Bit rate           : 33.7 kb/s
Count of elements        : 3271
Stream size          : 29.2 MiB (0%)
Title            : English-PGS
Language           : English
Default            : No
Forced           : No

Text #3
ID             : 8
Format           : PGS
Muxing mode          : zlib
Codec ID           : S_HDMV/PGS
Codec ID/Info          : Picture based subtitle format used on BDs/HD-DVDs
Duration           : 1 h 58 min
Bit rate           : 27.1 kb/s
Count of elements        : 2456
Stream size          : 22.8 MiB (0%)
Title            : English-SDH-PGS
Language           : English
Default            : No
Forced           : No

Text #4
ID             : 9
Format           : PGS
Muxing mode          : zlib
Codec ID           : S_HDMV/PGS
Codec ID/Info          : Picture based subtitle format used on BDs/HD-DVDs
Duration           : 2 h 0 min
Bit rate           : 33.7 kb/s
Count of elements        : 3271
Stream size          : 29.2 MiB (0%)
Title            : English-PGS
Language           : English
Default            : No
Forced           : No

Text #5
ID             : 10
Format           : PGS
Muxing mode          : zlib
Codec ID           : S_HDMV/PGS
Codec ID/Info          : Picture based subtitle format used on BDs/HD-DVDs
Duration           : 1 h 58 min
Bit rate           : 27.1 kb/s
Count of elements        : 2458
Stream size          : 22.9 MiB (0%)
Title            : English-SDH-PGS
Language           : English
Default            : No
Forced           : No

Text #6
ID             : 11
Format           : PGS
Muxing mode          : zlib
Codec ID           : S_HDMV/PGS
Codec ID/Info          : Picture based subtitle format used on BDs/HD-DVDs
Duration           : 1 h 58 min
Bit rate           : 22.8 kb/s
Count of elements        : 2365
Stream size          : 19.3 MiB (0%)
Title            : French-PGS
Language           : French
Default            : No
Forced           : No

Text #7
ID             : 12
Format           : PGS
Muxing mode          : zlib
Codec ID           : S_HDMV/PGS
Codec ID/Info          : Picture based subtitle format used on BDs/HD-DVDs
Duration           : 1 h 54 min
Bit rate           : 24.8 kb/s
Count of elements        : 2335
Stream size          : 20.3 MiB (0%)
Title            : Portuguese-PGS
Language           : Portuguese
Default            : No
Forced           : No

Text #8
ID             : 13
Format           : PGS
Muxing mode          : zlib
Codec ID           : S_HDMV/PGS
Codec ID/Info          : Picture based subtitle format used on BDs/HD-DVDs
Duration           : 1 h 52 min
Bit rate           : 27.1 kb/s
Count of elements        : 2364
Stream size          : 21.8 MiB (0%)
Title            : Spanish-PGS
Language           : Spanish
Default            : No
Forced           : No

Menu
00:00:00.000         : en:Chapter 1
00:06:29.000         : en:Chapter 2
00:14:56.000         : en:Chapter 3
00:21:54.000         : en:Chapter 4
00:28:37.000         : en:Chapter 5
00:36:37.000         : en:Chapter 6
00:44:39.000         : en:Chapter 7
00:51:56.000         : en:Chapter 8
00:59:16.000         : en:Chapter 9
01:05:57.000         : en:Chapter 10
01:12:11.000         : en:Chapter 11
01:19:35.000         : en:Chapter 12
01:25:09.000         : en:Chapter 13
01:32:25.000         : en:Chapter 14
01:39:36.000         : en:Chapter 15
01:49:54.000         : en:Chapter 16





                                                                  
                                                                                                                                                                                                                                                                                 
c59a15c2d8a35b13cccaaecb2aee2177.torrent (39.02 KB)

回复

使用道具 举报

百度云电影论坛 ( 辽ICP备17019482号-3 )

本网站所有资源来自网络,如无意中侵犯了您的权益,请发邮件至 [email protected],立即清除相关链接

GMT+8, 2024-5-23 14:20 , Processed in 0.081279 second(s), 33 queries .

Powered by Discuz! X3.2

© 2001-2013 Comsenz Inc.

快速回复 返回顶部 返回列表