百度云电影论坛

 找回密码
 立即注册

[BD-4K] 喧闹一家亲:圣诞节大冒险!/喧闹一家亲(真人版) A.Loud.House.Christmas.2021.2160p ...

[复制链接]

admin 发表于 2021-12-1 17:06:13 | 显示全部楼层 |阅读模式
喧闹一家亲:圣诞节大冒险!/喧闹一家亲(真人版) A.Loud.House.Christmas.2021.2160p.PMTP.WEB-DL.x265.8bit                                                                                                                                                                              -->
帖子完整标题:喧闹一家亲:圣诞节大冒险!/喧闹一家亲(真人版) A.Loud.House.Christmas.2021.2160p.PMTP.WEB-DL.x265.8bit.SDR.DDP5.1-WELP 4.46GB





◎译  名 喧闹一家亲:圣诞节大冒险!/喧闹一家亲(真人版)
◎片  名 The Loud House: A Very Loud Christmas!
◎年  代 2021
◎产  地 美国
◎类  别 剧情 / 喜剧 / 冒险
◎语  言 英语
◎上映日期 2021-11-26(美国)
◎豆瓣评分 /10 from 0 users
◎ 
◎导  演 乔纳森·扎治 Jonathan Judge
◎编  剧 克里斯·萨维诺 Chris Savino
◎主  演 布赖恩·斯特帕尼克 Brian Stepanek
     布瑞恩韦德 Brian Wade
     凯萨琳·塔柏 Catherine Taber
     莱希·德贝内代托 Lexi DiBenedetto
     杰齐尔·布鲁诺 Jahzir Bruno
     吉尔·简·克莱门茨 Jill Jane Clements

◎标  签 圣诞 | 2021

◎简  介

  暂无相关剧情介绍
Video
ID             : 1
Format           : HEVC
Format/Info          : High Efficiency Video Coding
Format profile         : @Main
Codec ID           : V_MPEGH/ISO/HEVC
Duration           : 1 h 4 min
Bit rate           : 9 222 kb/s
Width            : 3 840 pixels
Height           : 2 160 pixels
Display aspect ratio       : 16:9
Frame rate mode        : Constant
Frame rate           : 23.976 (24000/1001/189150) FPS
Color space          : YUV
Chroma subsampling       : 4:2:0
Bit depth          : 8 bits
Bits/(Pixel*Frame)       : 0.046
Stream size          : 4.17 GiB (93%)
Writing library        : x265 3.5f0c1022b6:[Linux][GCC 9.3.0][64 bit] 8bit
Encoding settings        : cpuid=1111039 / frame-threads=3 / wpp / no-pmode / no-pme / no-psnr / no-ssim / log-level=2 / input-csp=1 / input-res=3840x2160 / interlace=0 / total-frames=0 / level-idc=0 / high-tier=1 / uhd-bd=0 / ref=4 / no-allow-non-conformance / repeat-headers / annexb / no-aud / no-eob / no-eos / no-hrd / info / hash=0 / no-temporal-layers / open-gop / min-keyint=48 / keyint=48 / gop-lookahead=0 / bframes=4 / b-adapt=2 / b-pyramid / bframe-bias=0 / rc-lookahead=25 / lookahead-slices=4 / scenecut=0 / hist-scenecut=0 / radl=0 / no-splice / no-intra-refresh / ctu=64 / min-cu-size=8 / rect / no-amp / max-tu-size=32 / tu-inter-depth=1 / tu-intra-depth=1 / limit-tu=0 / rdoq-level=2 / dynamic-rd=0.00 / no-ssim-rd / signhide / no-tskip / nr-intra=0 / nr-inter=0 / no-constrained-intra / strong-intra-smoothing / max-merge=3 / limit-refs=3 / limit-modes / me=3 / subme=3 / merange=57 / temporal-mvp / no-frame-dup / no-hme / weightp / no-weightb / no-analyze-src-pics / deblock=0:0 / sao / no-sao-non-deblock / rd=4 / selective-sao=4 / no-early-skip / rskip / no-fast-intra / no-tskip-fast / no-cu-lossless / no-b-intra / no-splitrd-skip / rdpenalty=0 / psy-rd=2.00 / psy-rdoq=1.00 / no-rd-refine / no-lossless / cbqpoffs=0 / crqpoffs=0 / rc=abr / bitrate=9505 / qcomp=0.60 / qpstep=4 / stats-write=0 / stats-read=2 / cplxblur=20.0 / qblur=0.5 / vbv-maxrate=11406 / vbv-bufsize=9505 / vbv-init=0.8 / min-vbv-fullness=50.0 / max-vbv-fullness=80.0 / ipratio=1.40 / pbratio=1.30 / aq-mode=2 / aq-strength=1.00 / cutree / zone-count=0 / no-strict-cbr / qg-size=32 / no-rc-grain / qpmax=69 / qpmin=0 / no-const-vbv / sar=1 / overscan=0 / videoformat=5 / range=0 / colorprim=1 / transfer=1 / colormatrix=1 / chromaloc=0 / display-window=0 / cll=0,0 / min-luma=0 / max-luma=255 / log2-max-poc-lsb=8 / vui-timing-info / vui-hrd-info / slices=1 / no-opt-qp-pps / no-opt-ref-list-length-pps / no-multi-pass-opt-rps / scenecut-bias=0.05 / hist-threshold=0.03 / no-opt-cu-delta-qp / no-aq-motion / no-hdr10 / no-hdr10-opt / no-dhdr10-opt / no-idr-recovery-sei / analysis-reuse-level=0 / analysis-save-reuse-level=0 / analysis-load-reuse-level=0 / scale-factor=0 / refine-intra=0 / refine-inter=0 / refine-mv=1 / refine-ctu-distortion=0 / no-limit-sao / ctu-info=0 / no-lowpass-dct / refine-analysis-type=0 / copy-pic=1 / max-ausize-factor=1.0 / no-dynamic-refine / no-single-sei / no-hevc-aq / no-svt / no-field / qp-adaptation-range=1.00 / scenecut-aware-qp=0conformance-window-offsets / right=0 / bottom=0 / decoder-max-rate=0 / no-vbv-live-multi-pass
Default            : Yes
Forced           : No
Color range          : Limited
Color primaries        : BT.709
Transfer characteristics     : BT.709
Matrix coefficients        : BT.709

Audio
ID             : 2
Format           : E-AC-3
Format/Info          : Enhanced AC-3
Commercial name        : Dolby Digital Plus
Codec ID           : A_EAC3
Duration           : 1 h 4 min
Bit rate mode          : Constant
Bit rate           : 640 kb/s
Channel(s)           : 6 channels
Channel layout         : L R C LFE Ls Rs
Sampling rate          : 48.0 kHz
Frame rate           : 31.250 FPS (1536 SPF)
Compression mode         : Lossy
Stream size          : 297 MiB (6%)
Language           : English
Service kind         : Complete Main
Default            : Yes
Forced           : No

Text #1
ID             : 3
Format           : UTF-8
Codec ID           : S_TEXT/UTF8
Codec ID/Info          : UTF-8 Plain Text
Duration           : 1 h 4 min
Bit rate           : 93 b/s
Count of elements        : 1405
Stream size          : 44.4 KiB (0%)
Language           : English
Default            : No
Forced           : No

Text #2
ID             : 4
Format           : UTF-8
Codec ID           : S_TEXT/UTF8
Codec ID/Info          : UTF-8 Plain Text
Duration           : 1 h 4 min
Bit rate           : 99 b/s
Count of elements        : 1520
Stream size          : 47.2 KiB (0%)
Title            : SDH
Language           : English
Default            : No
Forced           : No

[/url]




                                                                  
                                                                                                                                                                                                                                                                                 
7fdb3c7784473afc9c1776b1b8fbd109.torrent (22.96 KB)

回复

使用道具 举报

百度云电影论坛 ( 辽ICP备17019482号-3 )

本网站所有资源来自网络,如无意中侵犯了您的权益,请发邮件至 [email protected],立即清除相关链接

GMT+8, 2024-6-20 08:10 , Processed in 0.128946 second(s), 29 queries .

Powered by Discuz! X3.2

© 2001-2013 Comsenz Inc.

快速回复 返回顶部 返回列表